» » Eliane Radigue - Vice - Versa, Etc…

🎤 Eliane Radigue - Vice - Versa, Etc… MP3

  • Performer: Eliane Radigue
  • Title: Vice - Versa, Etc…
  • Genre: Electronic
  • Country: France
  • Record source: Reel-To-Reel, Limited Edition, Numbered
  • Released: 1970
  • Style: Drone, Experimental, Minimal
  • Label: Not On Label (Eliane Radigue Self-released)
  • MP3 album: 2184 mb
  • FLAC album: 1026 mb
  • Rating: 4.4/5
  • Votes: 305
🎤 Eliane Radigue - Vice - Versa, Etc… MP3

Tracklist

1Vice - Versa, Etc…
2Vice - Versa, Etc…


Versions

CategoryArtistTitle (Format)LabelCategoryCountryYear
plana-RH alga041Eliane Radigue Vice - Versa, Etc. ‎(LP, Ltd, RM, RP)Alga Marghenplana-RH alga041Italy2018
IMPREC259Eliane Radigue Vice Versa, Etc.… ‎(2xCD, RE)Important Records IMPREC259US2009
plana-RH alga041Eliane Radigue Vice - Versa, Etc. ‎(LP, Ltd)Alga Marghenplana-RH alga041Italy2013
IMPREC259Eliane Radigue Vice Versa, Etc.… ‎(2xCD, RE)Important Records IMPREC259USUnknown


Notes

Bande stéréo - 2 pistes.
La lecture peut se faire :
- Piste I, séparément
- Piste II, séparément
- Piste I et II, simultanément.
Toute combinaison des deux voix, dans un sens ou dans l’autre, sur plusieurs magnétophones, ad libitum…

10 numbered and signed copies, hand-made cover.


Video


Album

Songs in album Eliane Radigue - Vice Versa, Etc. Eliane Radigue - Onward 9,5. Eliane Radigue - Onward 19. Eliane Radigue - Onward 38. Eliane Radigue - Onward 76. Eliane Radigue. Drone Ambient. Psi 847. Vice Versa, Etc. Your Rating. Overview . Islas resonantes, Eliane Radigue - Продолжительность: 55:03 Francesca P. Vice-Versa, Etc. is ranked 75,880th in the overall chart, 7,170th in the 1970s, and 675th in the year 1970. by Eliane Radigue Year: 1970 Overall rank: 75,880th. Accolades: Top albums of 1970 675th. Vice Versa is a tape-based drone recorded in 1970, a year before Radigue started working with the ARP 2500, a synthesizer that looks like a telephone switchboard with a keyboard and weighs about 60 pounds. For decades after, she used it exclusively. 1978's Triptych was Radigue's first full composition after dropping out of music to dedicate herself to Tibetan Buddhism in 1974. Though she didn't leave Buddhism behind- her works through the 70s, 80s, and 90s are not only suffused with a sense of contemplativeness and unrepentant nowness, but they're literally based on event. Éliane Radigue born January 24, 1932 is a French electronic music composer. She began working in the 1950s and her first compositions were presented in the late 1960s. Until 2000 her work was almost exclusively created with the ARP 2500 modular synthesizer and tape. She participated in their first album Before the Libretto on the Quecksilber label in 2005. Since 2004 she has dedicated herself to works for acoustic instruments. Vice-Versa, etc. Lara Vincy Gallery Paris, 1970. Chry-ptus New York Cultural Art Center, 1971. Listen free to Eliane Radigue Vice Versa, etc. Onward 9,5, Onward 19 and more. 8 tracks 58:52. Eliane Radigue born in 1932 is a French electronic music composer whose work, since the early 1970s, has been almost exclusively created using a single synthesizer, the ARP 2500 modular system, and tape. Raised in Paris by middle-cla read more. was originally a small handmade box, signed and numbered and released on the occasion of a show at Lara Vincy's gallery in 1970. The box contained a reel of magnetic tape and the instructions for use. It indicates that all playback speeds are possible, forward or backward, as well as any combination of two channels, on several recorders, ad libitum. This LP presents two versions done by Emmanuel Hoelterbach following the indications of Eliane Radigue to the letter, respecting her composition methods. TITLE Vice Versa, Etc. PERFORMER Eliane Radigue REM GENRE ElectronicaDance REM DATE 2009 FILE 01 Eliane Radigue - Onward 9, WAVE TRACK 01 AUDIO TITLE Onward 9,5 INDEX 01 00:00:00 FILE 02 Eliane Radigue - Onward WAVE TRACK 02 AUDIO TITLE Onward 19 INDEX 01 00:00:00 FILE 03 Eliane Radigue - Onward WAVE TRACK 03 AUDIO TITLE Onward. 38 INDEX 01 00:00:00 FILE 04 Eliane Radigue - Onward WAVE TRACK 04 AUDIO TITLE Onward 76 INDEX 01 00:00:00. Listen online top songs Eliane Radigue. Download the latest song of Vice Versa, Etc. Onward 38. Eliane Radigue - Vice Versa, Etc. Release type: Album. Release source: CD. Year: 2009. Duration: 58:44. Size, Mb: . Bitrate: 320. Price for album . Track List. Song Title



Related to Eliane Radigue - Vice - Versa, Etc…: